#TITLE:Identity;
#SUBTITLE:(SHD Mix);
#ARTIST:SHK;
#TITLETRANSLIT:;
#SUBTITLETRANSLIT:;
#ARTISTTRANSLIT:;
#CREDIT:;
#BANNER:Identity (SHD Mix).png;
#BACKGROUND:Identity (SHD Mix)-bg.png;
#LYRICSPATH:;
#CDTITLE:NVLM-cdtitle.png;
#MUSIC:Identity (SHD Mix).mp3;
#OFFSET:-2.090;
#SAMPLESTART:29.839;
#SAMPLELENGTH:12.000;
#SELECTABLE:YES;
#DISPLAYBPM:155.000;
#BPMS:0.000=155.000,32.000=400.000,52.000=155.000,252.000=309.999,260.000=155.000,360.000=400.000;
#STOPS:;
#BGCHANGES:;
// cache tags:
#FIRSTBEAT:0.000;
#LASTBEAT:384.000;
#SONGFILENAME:Songs/nhac/Identity part 1/Identity (SHD Mix).sm;
#HASMUSIC:1;
#HASBANNER:1;
#MUSICLENGTH:137.351;
// end cache tags

//---------------dance-single - ----------------
#NOTES:
     dance-single:
     :
     Hard:
     14:
     1.000,1.000,1.000,1.000,1.000,935.000,149.000,176.000,0.000,61.000:
0000
0000
0000
0000
0000
0000
2002
3003
,
0202
0303
0220
0330
2020
3030
2200
3300
,
0202
0303
2002
3003
2020
3030
0220
0330
,
2200
3300
2002
3003
0022
0033
0220
0330
,
2200
3300
2020
3030
0022
0033
0202
0303
,
0220
0330
0022
0033
0202
0303
0220
0330
,
2020
3030
2200
3300
0202
0303
2002
3003
,
2200
3300
0220
0330
0022
0033
0202
0303
,
1221
0000
0000
0000
,
0000
0000
0000
0000
,
0000
0000
0000
0000
,
0000
0000
0000
0000
,
0000
0000
0330
0000
,
2100
3001
2200
3300
0012
1003
0022
0033
,
0210
0301
0220
0330
0120
1030
0220
0330
,
1002
0103
2002
3003
2001
3010
2002
3003
,
1020
0130
2020
3030
2010
3001
2020
3030
,
0110
0001
0100
0001
1000
0010
1000
0010
1000
0100
1000
0100
0010
0001
0010
0001
,
0100
0010
0100
0010
0100
1000
0100
1000
0100
0001
0010
0001
0010
0100
1000
0100
,
1000
0010
0100
0010
0100
0001
0100
0001
0100
0010
1000
0100
1000
0100
0010
0001
,
1000
0001
1000
0001
1000
0000
0010
0000
0100
0000
0001
0000
0010
0000
0001
0000
0010
0000
0100
0000
1000
0000
0001
0000
2002
0000
0000
0000
3003
0000
0000
0000
,
2010
0100
0001
0010
0100
0001
0101
3001
,
0120
1000
0100
0001
0001
0100
1100
1030
,
1002
0100
0010
0010
0100
1000
1010
1003
,
1200
0010
0001
0001
0010
1000
1010
0310
,
0012
0100
1000
1000
0100
0010
1010
1003
,
1200
0010
0001
0010
0010
1000
1001
0301
,
1001
0100
0100
0010
0010
0001
0001
0100
1000
0100
0010
0100
1000
0100
0010
1000
,
0001
0010
0100
1000
0001
0010
0100
1000
0010
0100
0001
1000
2200
0000
3300
0000
,
0202
0310
2000
3103
2020
3001
0200
1330
,
2002
0013
0200
3301
0220
1030
0002
0313
,
2020
3100
0002
1033
2200
3001
0020
1330
,
2002
3010
0200
1303
2020
0130
0002
3013
,
0202
1300
0020
0133
2200
0301
0020
3130
,
0202
0310
2000
3013
2200
0301
0200
3310
,
0011
0000
0001
0000
0100
0000
0000
0100
0010
0000
0001
0000
1001
0000
0100
0000
,
0010
0000
0001
0000
0101
0000
0000
0100
1000
0000
0100
0000
0022
0000
0033
0000
,
1001
0001
1000
0001
1000
0001
1000
0001
1000
0001
1000
0001
1000
0001
1000
0001
,
0100
0010
0100
0010
0100
0000
0010
0000
0100
0000
0010
0000
0100
0000
0010
0000
1000
0001
1000
0001
1000
0000
0001
0000
1000
0001
1000
0001
1000
0000
0001
0000
,
0010
0100
1200
1000
0301
0100
0010
1000
0010
1000
0100
1000
0100
1000
0001
0010
,
0001
0010
0120
0100
1030
0001
1000
0001
0100
0010
0100
0010
1000
0100
1000
0100
,
0010
0001
1002
1000
0013
0100
0010
0100
0001
0010
0001
0010
0100
1000
0100
1000
,
0010
0100
0201
0001
1300
0100
1000
0100
0010
0001
0010
0001
1000
0010
1000
0010
,
0100
0001
1002
1000
0013
0100
0010
0100
0001
0010
0001
0010
0100
1000
0100
1000
,
0010
0100
0201
0001
1300
0100
1000
0100
0001
0010
0001
0010
0100
1000
0100
1000
,
0010
0001
0102
0100
0013
1000
0010
1000
0001
0010
0001
0010
0100
1000
0010
0100
,
0001
1000
2100
0100
3010
0001
0100
0010
0100
0010
1000
0100
0001
1000
0001
0000
,
1000
0100
0010
0000
0111
0000
0010
0000
0100
1000
0001
0000
1101
0000
0001
0000
,
0100
0010
1000
0000
1110
0000
1000
0000
0001
0010
0100
0000
0111
0000
0100
0000
,
0010
0001
1000
0000
1011
0000
1000
0000
0001
0100
0010
0000
1110
0000
0010
0000
,
1000
0100
0010
0000
1011
0000
0010
0000
0001
0100
0010
0000
1110
0000
0100
0000
,
1000
0001
0010
0000
1011
0000
1000
0000
0100
0010
0001
0000
1011
0000
0010
0000
,
0100
1000
0001
0000
0111
0000
0010
0000
0010
0001
1000
0000
1110
0000
0100
0000
,
1000
0001
0010
0000
0111
0000
0010
0000
0100
1000
0001
0000
1101
0000
0100
0000
,
0010
1000
0100
0000
1101
0000
1000
0000
0010
0100
0001
0000
2202
0000
3303
0000
,
1001
0010
1000
0010
0100
0001
0100
0001
0010
1000
0010
0001
0100
0010
0100
1000
,
0100
0001
0010
0100
1000
0100
1000
0010
0100
0010
0100
0001
1000
0001
0010
0100
,
0010
0100
1000
0010
1000
0010
0100
0001
0100
1000
0010
0001
0100
0010
1000
0100
,
0010
0100
0010
0001
0100
1000
0010
0001
0100
0010
0100
0010
1000
0001
1000
0100
,
1000
0010
0001
0100
0010
0001
0100
1000
0010
0100
1000
0001
0100
0010
0100
0010
,
1000
0100
1000
0001
0100
0100
0001
0010
0100
1000
1000
0100
0010
0001
0001
0100
,
0010
1000
0100
0010
0001
0001
0100
0010
1000
0100
1000
0001
0010
0001
0010
0100
,
1000
0010
1000
0010
1000
0000
0010
0000
0100
0001
0100
0001
0100
0000
0001
0000
1000
0100
1000
0100
1000
0000
0100
0000
0010
0000
0001
0000
1000
0000
0001
0000
,
2112
0000
0000
0000
,
3003
0000
0000
0000
,
1110
2220
0000
3330
0000
0000
1001
0000
,
0222
0000
0333
0000
0000
0000
1100
0110
,
1101
2202
0000
3303
0000
0000
0110
1100
,
2022
0000
0000
0000
0000
0000
3033
0000
0110
0000
0000
0101
0000
0000
0011
0000
,
0111
0222
0000
0333
0000
0000
1100
0000
,
2220
0000
3330
0000
0000
0000
0011
0110
,
1101
2202
0000
3303
0000
0000
1010
0000
,
1100
0000
0001
0000
1000
0000
0001
0000
1000
0000
0001
0000
1000
0000
0001
0000
0100
0010
0100
0010
0100
0000
0010
0100
0010
0100
0010
0000
0100
0010
0100
0010
,
0100
0001
0010
0100
1000
0100
1000
0010
0100
0001
0100
0010
1000
0100
2100
0000
,
3001
0100
0001
0010
0100
1000
0010
0100
0001
1000
0100
0010
0001
0100
0210
0000
,
0301
1000
0001
1000
0100
0010
0001
0000
1000
0010
1000
0010
0100
0001
0001
0000
,
0010
0100
1000
0100
1000
0001
0100
0001
0010
0100
1000
0010
0100
0001
2001
0000
,
3010
0100
0010
0010
1000
0100
1000
0100
0010
0001
0100
0010
1000
0001
1002
0000
,
0013
0100
0010
0001
1000
0010
1000
0010
0100
0001
0100
1000
0100
0001
2001
0000
,
3100
0010
0100
1000
0001
0100
1000
0001
0100
1000
0010
0100
0001
1000
2100
0000
,
3110
0000
0000
0000
0000
0000
0000
0000
0010
0000
0000
0000
0000
0000
0000
0000
0100
0010
0000
0000
0000
0000
0000
0000
0100
0000
0000
0000
0000
0000
0000
0000
0001
0100
0000
0000
0000
0000
0000
0000
0001
0000
0000
0000
0000
0000
0000
0000
1000
0001
0000
0000
0000
0000
0000
0000
1000
0000
0000
0000
0000
0000
0000
0000
,
1001
0001
0100
0010
0100
0010
1000
0100
1000
0100
0010
0001
0010
0100
1000
0001
,
1000
0001
0100
0010
0010
0100
1000
0100
0001
0010
0100
1000
0010
0100
0001
1000
,
1100
0001
0100
0010
0001
0100
1000
0100
0001
0010
0100
1000
0010
0100
0001
0010
,
0001
0010
0100
1000
0010
1000
1000
0100
0010
0001
0100
0001
0100
0010
1000
0100
,
1100
0001
1000
0010
0100
1000
0100
0001
0010
0100
1000
0100
0010
0001
0100
0001
,
0100
0010
1000
0010
1000
0100
0001
0100
1000
0010
0100
0001
0010
0100
1000
0100
,
1001
1000
0010
0100
0010
0100
0001
0010
0100
1000
1000
0100
0010
0001
1000
0010
,
0110
0001
0100
0001
1000
0100
1000
0100
0110
0001
0010
0001
1000
0010
1000
0010
,
1100
1000
0000
0110
0100
0000
0011
0010
0000
0101
0001
0000
0110
0000
1100
0000
,
2222
0000
0000
0000
,
0330
0000
0000
0000
,
0000
0000
0000
0000
,
0000
0000
0000
0000
,
0000
0000
0000
0000
,
0000
0000
0000
0000
,
3003
0000
0000
0000
;

//---------------dance-single - ----------------
#NOTES:
     dance-single:
     :
     Challenge:
     21:
     1.000,1.000,1.000,1.000,1.000,1214.000,738.000,414.000,0.000,720.000:
2112
3203
0322
2033
3220
0332
2203
3320
,
2132
3103
0220
0332
2203
3320
2032
3013
,
1221
1330
2200
3302
0223
1330
2020
3130
,
1212
0323
2032
3203
0322
1033
2200
3320
,
1232
1303
2020
3130
0202
0323
2032
3103
,
1221
0332
2203
3320
2032
3203
2320
3230
,
2312
3023
2230
3302
0223
2330
3022
0133
,
1212
0323
2032
3103
2222
0000
0000
0000
,
0000
0000
0000
0000
,
0000
0000
0000
0000
0000
0000
0000
0000
0000
0000
0000
0000
3333
0000
0000
1111
,
2222
0000
0000
0000
,
0000
0000
0000
0000
,
0000
0000
0000
0000
0000
0000
0000
0000
0000
0000
0000
0000
3333
0000
0000
1111
,
2221
0000
0331
0000
0022
0000
0133
0000
0202
0000
0313
0000
0220
0001
3331
0000
,
2202
0000
3310
0000
0220
0000
1330
0000
2020
0000
3130
0000
2200
0010
3313
0000
,
0222
0000
1033
0000
2002
0000
3013
0000
2020
0000
3031
0000
2002
0010
3313
0000
,
2022
0000
3103
0000
2200
0000
3301
0000
0202
0000
1303
0000
2002
0100
3133
0000
,
1111
1111
1111
1111
1111
1111
1111
1111
1111
1111
1111
1111
1111
1111
1111
2111
,
0111
0111
3111
0112
1110
1110
1113
2110
0111
0111
3111
0112
1110
1110
1113
1110
,
1111
1111
1111
1111
1111
1111
1111
1111
1111
1111
1111
1111
1111
1111
1111
1111
,
1100
0011
1100
0011
1100
0011
1100
0011
1100
0011
1100
0011
1100
0011
1100
0011
1100
0011
1100
0011
1100
0011
1100
0011
2222
0000
0000
0000
3333
0000
1111
0000
,
2121
0001
0130
0000
0102
0010
0013
0000
0200
0001
0310
0000
0102
0010
3103
1000
,
1122
0100
1030
0000
1200
0010
0310
0000
2000
0100
3010
0000
0210
1000
1303
0001
,
1221
1000
0031
0000
2001
0010
3010
0000
0012
1000
1003
0000
1020
0001
0331
1000
,
2121
0001
3100
0000
0102
1000
1003
0000
0200
0001
1300
0000
1002
0100
0133
0001
,
2121
0100
0031
0000
0210
0001
0301
0000
0020
0001
0130
0000
0102
0100
3013
0100
,
1122
1000
0130
0000
2010
0100
3010
0000
0200
0010
1300
0000
1020
1000
0133
0001
,
1211
1000
1310
0100
2001
0001
3101
0100
0012
0010
1013
0001
2100
0100
3101
0010
,
1111
1001
0110
0110
1100
1200
1001
2001
0311
0012
3110
0120
1100
1230
1313
1010
,
1202
0010
1300
0010
1020
0100
0230
1000
2300
0100
3010
0100
0210
1000
2303
0010
,
3221
1001
0032
1000
2013
0001
3020
0001
0032
1010
2003
0001
3021
1000
0332
1000
,
1223
0001
2300
0000
3102
1000
0203
0001
2301
0100
3002
1000
1203
1000
0332
0010
,
2213
0001
0320
0001
0132
0100
0023
0001
0230
0010
0302
0010
0213
0001
3320
1001
,
2231
0010
3002
0000
1023
0001
2030
0010
3002
1000
0023
1000
2031
0010
3302
1010
,
1223
0001
2300
0000
3102
1000
0203
1000
2300
0001
3002
0100
1203
0001
1330
0010
,
2111
0001
3201
1000
1312
0010
2013
0001
3112
0100
0123
1001
1230
1000
1302
1010
,
1113
1001
0101
1001
0110
1001
1010
0001
0110
1001
0101
1000
0110
1001
1010
0001
,
1111
0100
0010
0001
1000
0100
0010
0001
1000
0100
0010
0001
1000
0100
0010
0001
0110
1001
0110
1001
0110
1001
0110
1001
1100
0011
1100
0011
1100
0011
1100
0011
,
0110
1100
0110
1100
0110
1100
0110
1100
1001
0110
1001
0110
1001
0110
1001
0110
0011
1100
0011
1100
0011
1100
0011
1001
0110
1001
0110
1001
0110
1001
0110
1001
,
1211
1001
0302
0010
1100
1000
0010
0100
0010
1000
0100
0010
1100
1000
0013
0100
,
2011
0110
3021
1000
1100
0001
1000
0100
0001
0001
0100
1000
1001
0100
1030
0001
,
1102
1010
2103
0001
0011
0100
0001
0100
0010
0001
0100
0010
0101
0001
3010
0100
,
1201
0011
1302
0010
0110
1000
0010
0100
0010
1000
0100
0010
1010
0100
1003
0010
,
1102
1010
2103
0100
0011
0010
0100
0001
0100
0010
0001
0100
0110
0001
3010
0100
,
1012
0110
0123
1000
1001
0001
0100
1000
0100
0001
1000
0100
0001
1000
0130
0001
,
1021
1100
2031
0100
0110
0001
0010
0100
0001
0010
0100
0001
0101
0010
3001
0100
,
0121
1001
0132
0010
1010
0100
1000
0010
0100
1000
0010
0100
0110
1000
0103
0010
,
1111
0010
1200
1001
1310
0001
1200
1010
0301
1000
0210
1010
1301
0010
1200
1001
,
1300
0010
0021
1100
1031
0001
0120
0101
1030
0100
0021
1001
0131
1000
0021
0101
,
0130
1000
0102
1010
1103
0010
0102
1100
0013
1000
0102
1010
1103
0010
0102
1010
,
0103
0001
0120
1001
1031
0100
0021
1001
0130
0100
0021
1100
0131
0001
1020
1100
,
0031
1000
0210
0011
1301
0010
1200
1001
0310
1000
0210
1001
1301
0010
1200
1001
,
0310
0001
2100
0011
3101
0001
2010
0100
3001
0010
2001
0100
3110
0001
2010
0101
,
3101
0010
0102
1000
1013
0100
0012
1010
0103
0010
0102
1100
1013
0100
0102
0010
,
1103
0100
0021
1001
1130
0001
0120
1000
0130
0001
1020
1100
0131
0001
1010
0100
,
1121
0101
1001
1100
0101
1001
1100
0101
1001
1100
1001
0101
1100
1001
0131
1101
,
0211
1001
1010
0011
1001
1010
0011
1001
1010
0011
1001
1010
0011
1001
1310
0111
,
1102
1010
0110
1100
1010
0110
1100
1010
0110
1100
0110
1010
1100
0110
1013
1110
,
2101
0011
0110
0101
0011
0110
0101
0011
0110
0101
0011
0110
0101
0110
3011
1101
,
1120
1001
0101
1100
1001
0101
1001
1100
0101
1100
0101
1001
1100
0101
1031
1101
,
0112
1010
1100
0110
1010
0110
1100
0110
1010
1100
0110
1010
1100
0110
1013
0111
,
1201
1010
0011
1001
1010
0011
1001
1010
0011
1001
1010
0011
1001
1010
0311
1101
,
2111
0010
0001
0100
0010
0001
0101
0010
0001
0100
0011
0001
0100
0010
0001
0100
0010
0001
0100
0010
0001
0100
0011
0001
0100
0010
0001
0100
3011
0001
0100
0010
,
2222
0000
0000
0000
,
0000
0000
0000
3333
,
1112
2220
0000
3330
0223
1300
2230
3001
,
2322
0000
0000
0033
3220
0301
0232
1003
,
1312
2220
0000
3330
0223
0302
2233
0301
,
3222
0000
0000
0033
2320
3100
0232
1300
,
2113
0222
0000
0333
3022
1003
2230
3010
,
2322
0000
0000
3030
2203
0320
3232
0013
,
1321
2202
0000
3303
0232
0310
2123
0130
,
3112
0100
1000
0010
0100
1000
0010
0100
1000
0010
0100
1000
0010
0100
1000
0010
1100
1000
0110
0100
1010
0010
0100
1000
1010
0100
1010
0010
1103
1000
1011
0100
,
2111
0010
3100
1001
2101
0010
3001
1100
2010
0001
3100
1010
2110
0001
3100
1011
,
1112
0100
0013
0101
1102
1000
0013
0101
1002
0010
0103
0011
1012
1000
0103
0011
,
1121
0100
0031
1010
1120
0001
0130
1010
1020
0001
0130
1010
1021
0100
0031
1110
,
1211
0001
0310
1000
1201
0010
0301
1000
0210
0001
1300
0010
1200
0001
0310
1100
,
2111
0100
3010
1001
2101
0010
3100
1001
2010
0010
3001
1100
2110
0001
3010
1111
,
1121
0100
0031
1010
1120
0001
0130
1010
0021
0100
0031
1010
1120
0001
1030
0111
,
1211
1000
0301
0110
1201
1000
0310
0101
1200
0010
1300
0101
0210
1000
0310
0110
,
1111
0110
1001
0110
1001
0110
1001
0110
1001
1111
1001
1111
1001
1111
1001
1111
,
2111
0101
0011
0101
0110
0101
0110
0101
0011
0101
0110
0011
0101
0110
3011
1101
,
1112
1010
1100
0110
1010
1100
0110
1010
0110
1010
1100
0110
1010
0110
1103
1010
,
1211
1001
1010
0011
1001
1010
0011
1001
1010
0011
0011
1001
1010
0011
1310
1001
,
1121
0101
1100
1001
0101
1100
1001
0101
1100
1001
0101
0101
1100
1001
0131
0011
,
2111
0110
3012
2100
0113
3012
2100
0113
3012
2100
0113
3012
2100
0113
3011
1101
,
0110
1100
2001
0012
3110
1103
1012
1110
2103
0011
3110
1100
2001
0111
3012
1100
,
1013
0110
0101
1001
0110
1011
0120
1100
1031
0012
0110
1100
2013
0110
3101
0011
,
1111
0110
1101
0110
1001
0110
1011
0110
1001
1111
1101
1111
1001
1111
1011
1111
,
1111
2222
3333
1111
2222
3333
1111
2222
3333
1111
2222
3333
1111
1111
1111
1111
,
2222
0000
0000
0000
,
0000
0000
0000
3333
;

//---------------dance-double - ----------------
#NOTES:
     dance-double:
     :
     Challenge:
     22:
     1.000,1.000,1.000,1.000,1.000,1110.000,846.000,474.000,0.000,417.000:
00000000
00000000
00000000
00000000
00000000
00000000
20020022
30030033
,
02020220
03030330
02202200
03303300
20202020
30303030
22000220
33000330
,
02020202
03030303
20022002
30033003
20202020
30303030
02200220
03300330
,
22002200
33003300
20020022
30030033
00220202
00330303
02200220
03300330
,
22002020
33003030
20202200
30303300
00220202
00330303
02022002
03033003
,
02202200
03303300
00220220
00330330
02020022
03030033
02200220
03300330
,
20202200
30303300
22002020
33003030
02020220
03030330
20020202
30030303
,
22002002
33003003
02202200
03303300
00220220
00330330
02020022
03030033
,
22022202
00000000
00000000
00000000
,
00000000
00000000
00000000
00000000
,
00000000
00000000
00000000
00000000
,
00000000
00000000
00000000
00000000
,
00000000
00000000
33033303
00000000
,
22000022
33011033
22000022
33011033
22000022
33011033
22000022
33011033
,
02200220
13300331
02200220
13300331
02200220
13300331
02200220
13300331
,
00222200
01333310
00222200
01333310
00222200
01333310
00222200
01333310
,
20022002
30133103
20022002
30133103
20022002
30133103
20022002
30133103
,
00111001
01000100
00101000
01000100
00010010
10000001
00010010
10000001
01000100
00100010
01000100
00100010
00011000
01000100
00011000
01000100
,
00100010
10000001
00100010
10000001
00010100
00100010
00010100
00100010
01001000
10000001
01001000
10000001
00100010
01000100
00100010
01000100
,
00011000
10000010
00011000
10000010
01000100
00100001
01000100
00100001
00011000
01000100
00011000
01000100
00100010
10000001
00100010
10000001
,
11010000
00001001
11000000
00001001
11000000
00001001
11000000
00001001
11000000
00001001
11000000
00001001
11000000
00001001
11000000
00001001
11000000
00001001
11000000
00001001
11000000
00001001
11000000
00001001
22022202
00000000
00000000
00000000
33033303
00000000
00000000
00000000
,
02200001
00000010
13300100
00000000
00221100
00000000
01331000
00000000
20020010
00000100
31030001
00000000
00221001
00000000
10331000
00000000
,
02200100
00000010
03310001
00000000
20020011
00000000
31030010
00000000
20200100
00001000
30310001
00000000
02020101
00000000
13030100
00000000
,
02200010
00001000
03310001
00000000
20020101
00000000
31030100
00000000
00220010
00001000
10330001
00000000
22001001
00000000
33011000
00000000
,
02200100
00000010
13300001
00000000
22000011
00000000
33010010
00000000
02200100
00001000
13300001
00000000
20021001
00000000
30131000
00000000
,
02020010
00000100
13030001
00000000
22000101
00000000
33100100
00000000
02020010
00001000
03130001
00000000
22001001
00000000
33011000
00000000
,
20020100
00000010
31030001
00000000
02200011
00000000
03310010
00000000
22000100
00001000
33100001
00000000
02021001
00000000
13031000
00000000
,
10010220
01000000
10001330
01000000
10000022
01000000
10000133
01000000
00102002
00010000
00103013
00010000
00102200
00010000
00103301
00010000
,
02020100
00000010
13030100
00000010
02200100
00000010
03310100
00000010
22001000
00000001
33101000
00000001
20021000
00000001
31031000
00000001
,
00100220
00010000
10001330
00000000
10010022
00000000
00010133
00000000
00102002
01000000
10003103
00000000
11000220
00000000
01000331
00000000
,
00102002
00010000
10003103
00000000
10012020
00000000
00013031
00000000
00100220
01000000
10001330
00000000
11002002
00000000
01003013
00000000
,
00102200
00010000
10003301
00000000
10010202
00000000
00011303
00000000
00100220
01000000
10000331
00000000
11002002
00000000
01003103
00000000
,
00102020
00010000
10003031
00000000
10010220
00000000
00011330
00000000
00102020
01000000
10003031
00000000
11000202
00000000
01001303
00000000
,
00100220
00010000
01000331
00000000
01102002
00000000
00103013
00000000
10002200
00010000
01003301
00000000
11000220
00000000
10001330
00000000
,
00100202
01000000
00010313
00000000
01012002
00000000
01003103
00000000
00100022
10000000
00011033
00000000
00110220
00000000
00100331
00000000
,
20020100
00001000
31030100
00001000
00220100
00001000
10330100
00001000
02200001
00000010
03310001
00000010
22000001
00000010
33100001
00000010
,
00012200
10000000
00013301
10000000
00010220
10000000
00011330
10000000
01002002
00100000
01003013
00100000
01002200
00100000
01003300
00100000
,
11000000
00001000
00000100
11000000
00001000
00000100
11000000
00001000
00000100
11000000
00001000
00000100
11000000
00001000
00000100
11000000
00001000
00000100
11000000
00001000
00000100
11000000
00001000
00000100
11000000
00001000
00000100
11000000
00001000
00000100
11000000
00001000
,
00000011
00010000
00100000
00000011
00010000
00100000
00000011
00010000
00100000
00000011
00010000
00100000
00000011
00010000
00100000
00000011
00010000
00100000
00000011
00010000
00100000
00000011
00010000
00100000
00000011
00010000
00100000
00000011
00010000
00100000
00000011
00010000
,
00100001
01000100
00100102
01000000
10001000
00010000
10001000
00010000
01001000
00100000
01001000
00100000
10001000
01000000
10001003
01000000
,
00100010
00010100
20010010
00000100
01000001
00000010
01000001
00000010
01000100
00001000
01000100
00001000
01000010
00000100
31000010
00000100
,
00100001
00011000
00101200
00010000
01000010
00100000
01000010
00100000
10000010
01000000
10000010
01000000
00010010
10000000
00010310
10000000
,
00101000
01000001
01021000
00000001
10000010
00000100
10000010
00000100
10001000
00000010
10001000
00000010
10000100
00000001
10030100
00000001
,
01000010
00100100
01002100
00100000
00010001
10000000
00010001
10000000
00100001
01000000
00100001
01000000
10000001
00100000
10003001
00100000
,
01000010
00010100
20010010
00000100
00101000
00000010
00101000
00000010
00100100
00000001
00100100
00000001
00100010
00001000
30100010
00001000
,
01000100
00010010
01000012
00010000
10001000
01000000
10001000
01000000
00101000
00010000
00101000
00010000
01001000
10000000
01001003
10000000
,
00100001
00010010
10020001
00000010
01000100
00001000
01000100
00001000
01000010
00000100
01000010
00000100
01000001
00000010
01030001
00000010
,
10010101
00101000
10000100
00100000
10001000
00100100
10001000
00100000
01000001
00010100
01000001
00010000
01000100
00010010
01000100
00010000
,
00100001
10000010
00100001
00000010
10000001
00100010
10000001
00000010
00010100
01001000
00010100
00001000
01000100
00101000
01000100
00001000
,
10000001
00010010
10000001
00010000
10000010
00010100
10000010
00010000
01000100
00101000
01000100
00100000
01001000
00100001
01001000
00100000
,
00010010
10000100
00010010
00000100
10000010
00010100
10000010
00000100
01000001
00100010
01000001
00000010
00100001
00010010
00100001
00000010
,
00010100
10001000
00010100
10000000
00011000
10000010
00011000
10000000
01000010
00100001
01000010
00100000
01000001
00100100
01000001
00100000
,
00010100
10000010
00010100
00000010
10000100
01000010
10000100
00000010
01001000
00100100
01001000
00000100
00101000
00010100
00101000
00000100
,
10000001
00011000
10000001
00010000
10001000
00010010
10001000
00010000
00100010
01000100
00100010
01000000
00100100
01000001
00100100
01000000
,
10000001
00010010
10000001
00000010
00010001
00100010
00010001
00000010
00100100
01001000
00100100
00001000
01000100
10001000
01000100
00001000
,
10010011
01000100
10000010
01000100
00100001
00011000
00100001
00011000
01000100
00100001
01000100
00100001
10000010
01000100
10000010
01000100
,
00101000
00010010
00101000
00010010
01000100
00100001
01000100
00100001
10000010
01000100
10000010
01000100
00011000
00100010
00011000
00100010
,
01000100
10000001
01000100
10000001
00100010
01000100
00100010
01000100
00011000
00100010
00011000
00100010
01000100
10000001
01000100
10000001
,
00100010
00010100
00100010
00010100
01001000
00100010
01001000
00100010
10000100
01000001
10000100
01000001
00010010
10000100
00010010
10000100
,
00101000
01000100
00101000
01000100
10000010
00100001
10000010
00100001
01000100
00010010
01000100
00010010
00101000
01000100
00101000
01000100
,
10000001
00101000
10000001
00101000
01000010
00010100
01000010
00010100
00101000
00010010
00101000
00010010
01000100
00100001
01000100
00100001
,
10000010
01000100
10000010
01000100
00101000
00010010
00101000
00010010
10000100
00100001
10000100
00100001
01000010
00011000
01000010
00011000
,
00000110
00010000
01000000
00000110
00010000
01000000
00000110
00010000
01000000
00000110
00010000
01000000
00000110
00010000
01000000
00000110
00010000
01000000
00000110
00010000
01000000
00000110
00010000
01000000
00000110
00010000
01000000
00000110
00010000
01000000
00000110
00100000
,
22022202
00000000
00000000
00000000
,
33033303
00000000
00000000
00000000
,
11101101
22202202
00000000
33303303
00000000
00000000
10010110
01011010
,
11011101
22022202
00000000
33033303
00000000
00000000
11000011
01100110
,
11011101
22022202
00000000
33033303
00000000
00000000
01100011
11000110
,
11001101
00000000
22022202
00000000
00000000
00000000
33033303
00000000
01100011
01100011
00000000
01010110
01010110
00000000
00111100
00000000
,
11011101
22022202
00000000
33033303
00000000
00000000
11000011
01010110
,
11011101
22022202
00000000
33033303
00000000
00000000
00110110
01101100
,
11011101
22022202
00000000
33033303
00000000
00000000
10101100
01100110
,
10010011
00000000
00000011
00000000
01010000
00000000
01010000
00000000
00000110
00000000
00000110
00000000
10010000
00000000
10010000
00000000
00000011
01100000
00000011
01100000
00000011
01100000
00000011
01100000
00000011
01100000
00000011
01100000
00000011
01100000
00000011
01100000
,
20020101
00000010
31030100
00000010
00221000
00000001
10331000
00000001
02200010
00000100
03310010
00000100
22001000
00000010
33101000
00000010
,
20020100
00000001
31030100
00000001
00220010
00001000
10330010
00001000
02200100
00000001
03310100
00000001
22000010
00000100
33100010
00000100
,
20021000
00000001
31031000
00000001
00220100
00001000
10330100
00001000
22000010
00000100
33010010
00000100
02200001
00000010
13300001
00000010
,
20020100
00000001
30130100
00000001
02201000
00000100
13301000
00000100
20020010
00000001
30130010
00000001
02020100
00000010
03130100
00000010
,
10002002
01000000
10003103
01000000
00100022
00010000
00101033
00010000
01000220
00100000
01000331
00100000
10002200
01000000
10003310
01000000
,
00012002
10000000
00013013
10000000
00102200
01000000
00103301
01000000
00010022
00100000
00010133
00100000
01002002
10000000
01003013
10000000
,
00102200
00010000
00103301
00010000
01000022
00100000
01000133
00100000
10002002
01000000
10003013
01000000
00102200
00010000
00103301
00010000
,
11011001
00000000
01010000
00000000
00000011
00000000
00000011
00000000
11000000
00000000
11000000
00000000
00000110
00000000
00000110
00000000
01100000
00001001
01100000
00001001
01100000
00001001
01100000
00001001
01100000
00001001
01100000
00001001
01100000
00001001
01100000
00001001
,
10010100
00100010
00010100
00100010
01000001
10001000
01000001
10001000
00100010
01000100
00100010
01000100
00011000
10000001
00011000
10000001
,
01000100
00101000
01000100
00101000
00010010
01000100
00010010
01000100
00100001
10000010
00100001
10000010
01000100
00011000
01000100
00011000
,
00100010
01000100
00100010
01000100
10000001
00101000
10000001
00101000
01000100
00010001
01000100
00010001
00100010
10001000
00100010
10001000
,
01000100
00100001
01000100
00100001
00010010
10000100
00010010
10000100
00101000
01000010
00101000
01000010
10000100
00010001
10000100
00010001
,
00100010
01000100
00100010
01000100
00011000
10000001
00011000
10000001
01000100
00010010
01000100
00010010
00101000
10000100
00101000
10000100
,
01000010
10000001
01000010
10000001
00100100
01000001
00100100
01000001
00011000
00100100
00011000
00100100
01000010
10001000
01000010
10001000
,
00100001
00010010
00100001
00010010
01000100
00101000
01000100
00101000
10000010
01000100
10000010
01000100
00100001
00010010
00100001
00010010
,
01000100
10001000
01000100
10001000
00100010
01000001
00100010
01000001
00010100
00100010
00010100
00100010
01001000
10000100
01001000
10000100
,
22022202
00000000
33033303
22022202
00000000
33033303
22022202
00000000
33033303
22022202
00000000
33033303
22022202
33033303
22022202
33033303
,
22022202
00000000
00000000
00000000
,
00000000
00000000
00000000
00000000
,
00000000
00000000
00000000
00000000
,
00000000
00000000
00000000
00000000
,
00000000
00000000
00000000
00000000
,
00000000
00000000
00000000
00000000
,
33033303
00000000
00000000
00000000
;
